a b c d e f g h i j k l m n o p q r s t u v w x y z 0-9
Sort articles by: date | rating | read | comments | title
Hadh Kar Di Aapne (2000) 720p - HD-DVDRip - AVC - AAC-Bollywooda2z

Hadh Kar Di Aapne (2000) 720p - HD-DVDRip - AVC - AAC-Bollywooda2z


Hadh Kar Di Aapne (2000) 720p - HD-DVDRip - AVC - AAC-Bollywooda2z


Format                      : MPEG-4
Format profile              : Base Media / Version 2
Codec ID                    : mp42 (isom/mp42)
File size                   : 1.20 GiB
Duration                    : 2 h 13 min
Overall bit rate mode       : Variable
Overall bit rate            : 1 291 kb/s
Encoded date                : UTC 2018-09-16 08:20:50
Tagged date                 : UTC 2018-09-16 08:20:50
gsst                        : 0
gstd                        : 8009978

Video
ID                          : 1
Format                      : AVC
Format/Info                 : Advanced Video Codec
Format profile              : 
Format settings, CABAC      : Yes
Format settings, RefFrames  : 3 frames
Codec ID                    : avc1
Codec ID/Info               : Advanced Video Coding
Duration                    : 2 h 13 min
Bit rate                    : 1 161 kb/s
Width                       : 1 280 pixels
Height                      : 720 pixels
Display aspect ratio        : 16:9
Frame rate mode             : Constant
Frame rate                  : 25.000 FPS
Color space                 : YUV
Chroma subsampling          : 4:2:0
Bit depth                   : 8 bits
Scan type                   : Progressive
Bits/(Pixel*Frame)          : 0.050
Stream size                 : 1.08 GiB (90%)
Title                       : ISO Media file produced by Google Inc. Created on: 09/16/2018.
Encoded date                : UTC 2018-09-16 08:20:50
Tagged date                 : UTC 2018-09-16 08:20:50
Color range                 : Limited
Color primaries             : BT.709
Transfer characteristics    : BT.709
Matrix coefficients         : BT.709

Audio
ID                          : 2
Format                      : AAC
Format/Info                 : Advanced Audio Codec
Format profile              : LC
Codec ID                    : 40
Duration                    : 2 h 13 min
Bit rate mode               : Variable
Bit rate                    : 126 kb/s
Channel(s)                  : 2 channels
Channel positions           : Front: L R
Sampling rate               : 44.1 kHz
Frame rate                  : 43.066 FPS (1024 SPF)
Compression mode            : Lossy
Stream size                 : 120 MiB (10%)
Title                       : ISO Media file produced by Google Inc. Created on: 09/16/2018.
Language                    : English
Encoded date                : UTC 2018-09-16 08:20:50
Tagged date                 : UTC 2018-09-16 08:20:50



Hadh Kar Di Aapne (2000) 720p - HD-DVDRip - AVC - AAC-Bollywooda2z

SINGLE DIRECT FAST LINKS



https://www.heroupload.com/ed967e4b55a60f64/Hadh.Kar.Di.Aapne.720p-BollywoodA2z.mp4