a b c d e f g h i j k l m n o p q r s t u v w x y z 0-9

Chhichhore (2019) 1080p - HDRip - x264 - AC3 - Esubs-Ranvijay

  • Views: 21
  • Author: stev
  • Date: 2-11-2019, 01:36
  • Category: Bollywood BluRay - Full HD
  • Rating:
    Description of the movie:
    Chhichhore (2019) 1080p - HDRip - x264 - AC3 - Esubs-Ranvijay





    Format                                   : Matroska
    Format version                           : Version 4 / Version 2
    File size                                : 3.51 GiB
    Duration                                 : 2 h 23 min
    Overall bit rate mode                    : Variable
    Overall bit rate                         : 3 504 kb/s
    
    Video
    ID                                       : 1
    Format                                   : AVC
    Format/Info                              : Advanced Video Codec
    Format profile                           : [email protected]
    Format settings                          : CABAC / 3 Ref Frames
    Format settings, CABAC                   : Yes
    Format settings, RefFrames               : 3 frames
    Codec ID                                 : V_MPEG4/ISO/AVC
    Duration                                 : 2 h 23 min
    Bit rate mode                            : Variable
    Bit rate                                 : 3 297 kb/s
    Maximum bit rate                         : 40.0 Mb/s
    Width                                    : 1 920 pixels
    Height                                   : 800 pixels
    Display aspect ratio                     : 2.40:1
    Frame rate mode                          : Constant
    Frame rate                               : 24.000 FPS
    Color space                              : YUV
    Chroma subsampling                       : 4:2:0
    Bit depth                                : 8 bits
    Scan type                                : Progressive
    Bits/(Pixel*Frame)                       : 0.089
    Stream size                              : 3.32 GiB (94%)
    Title                                    : ~Ranvijay~
    
    Audio
    ID                                       : 2
    Format                                   : AC-3
    Format/Info                              : Audio Coding 3
    Codec ID                                 : A_AC3
    Duration                                 : 2 h 23 min
    Bit rate mode                            : Constant
    Bit rate                                 : 192 kb/s
    Channel(s)                               : 2 channels
    Channel positions                        : Front: L R
    Sampling rate                            : 44.1 kHz
    Frame rate                               : 28.711 FPS (1536 SPF)
    Bit depth                                : 16 bits
    Compression mode                         : Lossy
    Stream size                              : 197 MiB (5%)
    Title                                    : ~Ranvijay~
    Language                                 : Hindi
    Service kind                             : Complete Main
    Default                                  : Yes
    Forced                                   : Yes
    
    Text #1
    ID                                       : 3
    Format                                   : UTF-8
    Codec ID                                 : S_TEXT/UTF8
    Codec ID/Info                            : UTF-8 Plain Text
    Duration                                 : 2 h 18 min
    Bit rate                                 : 57 b/s
    Count of elements                        : 2034
    Stream size                              : 58.3 KiB (0%)
    Title                                    : ~Ranvijay~
    Language                                 : English
    Default                                  : Yes
    Forced                                   : Yes
    
    Text #2
    ID                                       : 4
    Format                                   : UTF-8
    Codec ID                                 : S_TEXT/UTF8
    Codec ID/Info                            : UTF-8 Plain Text
    Duration                                 : 2 h 18 min
    Bit rate                                 : 114 b/s
    Count of elements                        : 2034
    Stream size                              : 116 KiB (0%)
    Title                                    : ~Ranvijay~
    Language                                 : English
    Default                                  : No
    Forced                                   : No




    Chhichhore (2019) 1080p - HDRip - x264 - AC3 - Esubs-Ranvijay Chhichhore (2019) 1080p - HDRip - x264 - AC3 - Esubs-Ranvijay Chhichhore (2019) 1080p - HDRip - x264 - AC3 - Esubs-Ranvijay Chhichhore (2019) 1080p - HDRip - x264 - AC3 - Esubs-Ranvijay Chhichhore (2019) 1080p - HDRip - x264 - AC3 - Esubs-Ranvijay Chhichhore (2019) 1080p - HDRip - x264 - AC3 - Esubs-Ranvijay


    SINGLE DIRECT FAST LINKS

    https://www.heroupload.com/b3171028a4d9bed8/Chhichhore.2019.1080p.WEB-Rip.x264.AAC.ESUBS-Ranvijay.mkv


    1GB LINKS


    
    https://www.heroupload.com/9cac4de5e1ccde09/Chhichhore.2019.1080p.WEB-Rip.x264.AAC.ESUBS-Ranvijay.part1.rar
    https://www.heroupload.com/e1672b6b352b2feb/Chhichhore.2019.1080p.WEB-Rip.x264.AAC.ESUBS-Ranvijay.part2.rar
    https://www.heroupload.com/429dc8216af7cc21/Chhichhore.2019.1080p.WEB-Rip.x264.AAC.ESUBS-Ranvijay.part3.rar
    https://www.heroupload.com/30009862349859d3/Chhichhore.2019.1080p.WEB-Rip.x264.AAC.ESUBS-Ranvijay.part4.rar


    Comments

    Add Comment!


    Add comment

    Name:*
    E-Mail:
    Comment:
    • winkwinkedsmileam
      belayfeelfellowlaughing
      lollovenorecourse
      requestsadtonguewassat
      cryingwhatbullyangry
    Security Code: *
    reload, if the code cannot be seen