a b c d e f g h i j k l m n o p q r s t u v w x y z 0-9

3 Idiots (2009) 720p - BluRay - x264 - DD5.1-NhaNc3

  • Views: 12
  • Author: stev
  • Date: 15-09-2020, 17:11
  • Category: Bollywood BluRay - Full HD
  • Rating:
    Description of the movie:

    3 Idiots (2009) 720p - BluRay - x264 - DD5.1-NhaNc3



    
    General
    Unique ID                   : 206608074341042871344533820951518123411 (0x9B6F4488CF71526E8F13AD690FA61593)
    Complete name               : E:\Download C 3\Bollywood 720p BluRay nHD Mega Pack x264 NhaNc3\3.Idiots.2009.720p.BluRay.nHD.x264-NhaNc3.mkv
    Format                      : Matroska
    Format version              : Version 2
    File size                   : 3.26 GiB
    Duration                    : 2 h 51 min
    Overall bit rate            : 2 724 kb/s
    Encoded date                : UTC 2010-12-25 20:40:05
    Writing application         : mkvmerge v4.4.0 ('Die Wiederkehr') built on Oct 31 2010 21:52:48
    Writing library             : libebml v1.0.0 + libmatroska v1.0.0
    
    Video
    ID                          : 1
    Format                      : AVC
    Format/Info                 : Advanced Video Codec
    Format profile              : 
    Format settings, CABAC      : Yes
    Format settings, RefFrames  : 7 frames
    Muxing mode                 : Header stripping
    Codec ID                    : V_MPEG4/ISO/AVC
    Duration                    : 2 h 51 min
    Bit rate                    : 2 372 kb/s
    Width                       : 1 280 pixels
    Height                      : 544 pixels
    Display aspect ratio        : 2.35:1
    Frame rate mode             : Constant
    Frame rate                  : 24.000 FPS
    Color space                 : YUV
    Chroma subsampling          : 4:2:0
    Bit depth                   : 8 bits
    Scan type                   : Progressive
    Bits/(Pixel*Frame)          : 0.142
    Stream size                 : 2.81 GiB (86%)
    Writing library             : x264 core 110 r1820 fdcf2ae
    Encoding settings           : cabac=1 / ref=8 / deblock=1:-1:-1 / analyse=0x3:0x113 / me=umh / subme=10 / psy=1 / psy_rd=1.00:0.00 / mixed_ref=1 / me_range=24 / chroma_me=1 / trellis=2 / 8x8dct=1 / cqm=0 / deadzone=21,11 / fast_pskip=1 / chroma_qp_offset=-2 / threads=12 / sliced_threads=0 / nr=0 / decimate=1 / interlaced=0 / constrained_intra=0 / bframes=3 / b_pyramid=1 / b_adapt=2 / b_bias=0 / direct=3 / weightb=1 / open_gop=0 / weightp=2 / keyint=250 / keyint_min=23 / scenecut=40 / intra_refresh=0 / rc_lookahead=40 / rc=2pass / mbtree=0 / bitrate=2372 / ratetol=2.0 / qcomp=0.70 / qpmin=10 / qpmax=51 / qpstep=4 / cplxblur=20.0 / qblur=0.5 / vbv_maxrate=25000 / vbv_bufsize=25000 / ip_ratio=1.40 / pb_ratio=1.30 / aq=1:0.80 / nal_hrd=none
    Language                    : English
    Default                     : Yes
    Forced                      : No
    
    Audio
    ID                          : 2
    Format                      : AC-3
    Format/Info                 : Audio Coding 3
    Format settings, Endianness : Big
    Muxing mode                 : Header stripping
    Codec ID                    : A_AC3
    Duration                    : 2 h 51 min
    Bit rate mode               : Constant
    Bit rate                    : 320 kb/s
    Channel(s)                  : 6 channels
    Channel positions           : Front: L C R, Side: L R, LFE
    Sampling rate               : 48.0 kHz
    Frame rate                  : 31.250 FPS (1536 SPF)
    Bit depth                   : 16 bits
    Compression mode            : Lossy
    Stream size                 : 392 MiB (12%)
    Language                    : Hindi
    Service kind                : Complete Main
    Default                     : Yes
    Forced                      : No
    
    Text #1
    ID                          : 3
    Format                      : UTF-8
    Codec ID                    : S_TEXT/UTF8
    Codec ID/Info               : UTF-8 Plain Text
    Language                    : English
    Default                     : Yes
    Forced                      : No
    
    Text #2
    ID                          : 4
    Format                      : VobSub
    Muxing mode                 : zlib
    Codec ID                    : S_VOBSUB
    Codec ID/Info               : Picture based subtitle format used on DVDs
    Language                    : Dutch
    Default                     : No
    Forced                      : No
    
    Text #3
    ID                          : 5
    Format                      : VobSub
    Muxing mode                 : zlib
    Codec ID                    : S_VOBSUB
    Codec ID/Info               : Picture based subtitle format used on DVDs
    Language                    : French
    Default                     : No
    Forced                      : No
    
    Text #4
    ID                          : 6
    Format                      : VobSub
    Muxing mode                 : zlib
    Codec ID                    : S_VOBSUB
    Codec ID/Info               : Picture based subtitle format used on DVDs
    Language                    : Portuguese
    Default                     : No
    Forced                      : No
    
    Text #5
    ID                          : 7
    Format                      : VobSub
    Muxing mode                 : zlib
    Codec ID                    : S_VOBSUB
    Codec ID/Info               : Picture based subtitle format used on DVDs
    Language                    : Malay
    Default                     : No
    Forced                      : No
    
    Text #6
    ID                          : 8
    Format                      : VobSub
    Muxing mode                 : zlib
    Codec ID                    : S_VOBSUB
    Codec ID/Info               : Picture based subtitle format used on DVDs
    Language                    : Spanish
    Default                     : No
    Forced                      : No
    
    Text #7
    ID                          : 9
    Format                      : VobSub
    Muxing mode                 : zlib
    Codec ID                    : S_VOBSUB
    Codec ID/Info               : Picture based subtitle format used on DVDs
    Title                       : KaMaL DDR
    Language                    : Arabic
    Default                     : No
    Forced                      : No
    
    Menu
    00:00:00.000                : en:00:00:00.000
    00:01:07.375                : en:00:01:07.375
    00:08:23.041                : en:00:08:23.041
    00:13:24.416                : en:00:13:24.416
    00:18:07.666                : en:00:18:07.666
    00:23:13.000                : en:00:23:13.000
    00:28:49.250                : en:00:28:49.250
    00:30:02.208                : en:00:30:02.208
    00:31:29.041                : en:00:31:29.041
    00:37:09.250                : en:00:37:09.250
    00:44:34.000                : en:00:44:34.000
    00:59:55.333                : en:00:59:55.333
    01:06:27.500                : en:01:06:27.500
    01:14:12.083                : en:01:14:12.083
    01:20:47.125                : en:01:20:47.125
    01:25:03.416                : en:01:25:03.416
    01:28:24.833                : en:01:28:24.833
    01:36:50.833                : en:01:36:50.833
    01:42:58.416                : en:01:42:58.416
    01:47:41.041                : en:01:47:41.041
    01:52:03.000                : en:01:52:03.000
    01:58:04.708                : en:01:58:04.708
    02:09:01.541                : en:02:09:01.541
    02:11:40.666                : en:02:11:40.666
    02:18:18.625                : en:02:18:18.625
    02:24:14.333                : en:02:24:14.333
    02:37:46.041                : en:02:37:46.041
    


    3 Idiots (2009) 720p - BluRay - x264 - DD5.1-NhaNc3

    SINGLE DIRECT FAST LINKS

    
    https://www.heroupload.com/d5db160344748922/3.Idiots.2009.720p.BluRay.nHD.x264-NhaNc3.mkv
    


    Comments

    Add Comment!


    Add comment

    Name:*
    E-Mail:
    Comment:
    • winkwinkedsmileam
      belayfeelfellowlaughing
      lollovenorecourse
      requestsadtonguewassat
      cryingwhatbullyangry
    Security Code: *
    reload, if the code cannot be seen