a b c d e f g h i j k l m n o p q r s t u v w x y z 0-9

M.S. Dhoni: The Untold Story (2016) 720p - BluRay - x264 - DD5.1-NhaNc3

  • Views: 17
  • Author: stev
  • Date: 16-10-2020, 20:05
  • Category: Bollywood BluRay - Full HD
  • Rating:
    Description of the movie:

    M.S. Dhoni: The Untold Story (2016) 720p - BluRay - x264 - DD5.1-NhaNc3




    
    Format                      : Matroska
    Format version              : Version 2
    File size                   : 3.64 GiB
    Duration                    : 3 h 4 min
    Overall bit rate            : 2 818 kb/s
    Encoded date                : UTC 2017-11-08 12:07:26
    Writing application         : mkvmerge v4.9.1 ('Ich will') built on Jul 11 2011 23:53:15
    Writing library             : libebml v1.2.1 + libmatroska v1.1.1
    
    Video
    ID                          : 1
    Format                      : AVC
    Format/Info                 : Advanced Video Codec
    Format profile              : 
    Format settings, CABAC      : Yes
    Format settings, RefFrames  : 8 frames
    Codec ID                    : V_MPEG4/ISO/AVC
    Duration                    : 3 h 4 min
    Bit rate                    : 2 416 kb/s
    Width                       : 1 280 pixels
    Height                      : 532 pixels
    Display aspect ratio        : 2.40:1
    Frame rate mode             : Constant
    Frame rate                  : 24.000 FPS
    Color space                 : YUV
    Chroma subsampling          : 4:2:0
    Bit depth                   : 8 bits
    Scan type                   : Progressive
    Bits/(Pixel*Frame)          : 0.148
    Stream size                 : 3.07 GiB (84%)
    Writing library             : x264 core 148 r2638 7599210
    Encoding settings           : cabac=1 / ref=8 / deblock=1:0:0 / analyse=0x3:0x113 / me=umh / subme=9 / psy=1 / psy_rd=1.00:0.00 / mixed_ref=1 / me_range=16 / chroma_me=1 / trellis=1 / 8x8dct=1 / cqm=0 / deadzone=21,11 / fast_pskip=1 / chroma_qp_offset=-2 / threads=8 / lookahead_threads=1 / sliced_threads=0 / nr=0 / decimate=1 / interlaced=0 / bluray_compat=0 / constrained_intra=0 / bframes=5 / b_pyramid=2 / b_adapt=1 / b_bias=0 / direct=1 / weightb=1 / open_gop=0 / weightp=2 / keyint=250 / keyint_min=24 / scenecut=40 / intra_refresh=0 / rc_lookahead=40 / rc=2pass / mbtree=1 / bitrate=2416 / ratetol=1.0 / qcomp=0.60 / qpmin=0 / qpmax=69 / qpstep=4 / cplxblur=20.0 / qblur=0.5 / vbv_maxrate=20000 / vbv_bufsize=15000 / nal_hrd=none / filler=0 / ip_ratio=1.40 / aq=1:1.00
    Language                    : English
    Default                     : Yes
    Forced                      : No
    Color range                 : Limited
    Color primaries             : BT.709
    Transfer characteristics    : BT.709
    Matrix coefficients         : BT.709
    
    Audio
    ID                          : 2
    Format                      : AC-3
    Format/Info                 : Audio Coding 3
    Format settings, Endianness : Big
    Codec ID                    : A_AC3
    Duration                    : 3 h 4 min
    Bit rate mode               : Constant
    Bit rate                    : 384 kb/s
    Channel(s)                  : 6 channels
    Channel positions           : Front: L C R, Side: L R, LFE
    Sampling rate               : 48.0 kHz
    Frame rate                  : 31.250 FPS (1536 SPF)
    Bit depth                   : 16 bits
    Compression mode            : Lossy
    Stream size                 : 507 MiB (14%)
    Language                    : English
    Service kind                : Complete Main
    Default                     : Yes
    Forced                      : Yes
    
    Text #1
    ID                          : 3
    Format                      : UTF-8
    Codec ID                    : S_TEXT/UTF8
    Codec ID/Info               : UTF-8 Plain Text
    Title                       : DDR
    Language                    : English
    Default                     : Yes
    Forced                      : No
    Statistics Tags Issue       : mkvmerge v8.5.2 ('Crosses') 32bit 2016-12-29 18:50:53 / mkvmerge v4.9.1 ('Ich will') built on Jul 11 2011 23:53:15 2017-11-08 12:07:26
    FromStats_BitRate           : 57
    FromStats_Duration          : 02:56:19.375000000
    FromStats_FrameCount        : 2459
    FromStats_StreamSize        : 75687
    
    Text #2
    ID                          : 4
    Format                      : PGS
    Muxing mode                 : zlib
    Codec ID                    : S_HDMV/PGS
    Codec ID/Info               : Picture based subtitle format used on BDs/HD-DVDs
    Title                       : DDR
    Language                    : English
    Default                     : No
    Forced                      : No
    Statistics Tags Issue       : mkvmerge v8.5.2 ('Crosses') 32bit 2016-12-29 18:50:53 / mkvmerge v4.9.1 ('Ich will') built on Jul 11 2011 23:53:15 2017-11-08 12:07:26
    FromStats_BitRate           : 17382
    FromStats_Duration          : 02:56:19.375000000
    FromStats_FrameCount        : 4386
    FromStats_StreamSize        : 22987432
    
    Menu
    00:00:00.000                : en:00:00:00.000
    00:00:04.000                : en:00:00:04.000
    00:05:56.500                : en:00:05:56.500
    00:16:20.000                : en:00:16:20.000
    00:28:22.208                : en:00:28:22.208
    00:39:29.000                : en:00:39:29.000
    00:49:23.000                : en:00:49:23.000
    00:59:46.042                : en:00:59:46.042
    01:08:13.042                : en:01:08:13.042
    01:17:55.417                : en:01:17:55.417
    01:26:47.083                : en:01:26:47.083
    01:30:28.292                : en:01:30:28.292
    01:40:41.000                : en:01:40:41.000
    01:49:23.542                : en:01:49:23.542
    01:59:24.167                : en:01:59:24.167
    02:02:38.417                : en:02:02:38.417
    02:10:03.417                : en:02:10:03.417
    02:27:14.417                : en:02:27:14.417
    02:35:54.000                : en:02:35:54.000
    02:43:22.167                : en:02:43:22.167
    02:46:46.000                : en:02:46:46.000
    02:49:26.167                : en:02:49:26.167
    03:00:06.208                : en:03:00:06.208
    


    M.S. Dhoni: The Untold Story (2016) 720p - BluRay - x264 - DD5.1-NhaNc3

    SINGLE DIRECT FAST LINKS

    
    https://www.heroupload.com/7d50b8c8ff41c6df/M.S..Dhoni.(2016).720p.BluRay.nHD.x264-NhaNc3.mkv
    


    Comments

    Add Comment!


    Add comment

    Name:*
    E-Mail:
    Comment:
    • winkwinkedsmileam
      belayfeelfellowlaughing
      lollovenorecourse
      requestsadtonguewassat
      cryingwhatbullyangry
    Security Code: *
    reload, if the code cannot be seen