a b c d e f g h i j k l m n o p q r s t u v w x y z 0-9

Lipstick Under My Burkha (2016) 720p - BluRay - x264 - DD5.1-NhaNc3

  • Views: 15
  • Author: stev
  • Date: 16-10-2020, 20:06
  • Category: Bollywood BluRay - Full HD
  • Rating:
    Description of the movie:

    Lipstick Under My Burkha (2016) 720p - BluRay - x264 - DD5.1-NhaNc3




    
    Format                      : Matroska
    Format version              : Version 2
    File size                   : 2.34 GiB
    Duration                    : 1 h 58 min
    Overall bit rate            : 2 836 kb/s
    Encoded date                : UTC 2017-11-08 09:20:07
    Writing application         : mkvmerge v4.9.1 ('Ich will') built on Jul 11 2011 23:53:15
    Writing library             : libebml v1.2.1 + libmatroska v1.1.1
    
    Video
    ID                          : 1
    Format                      : AVC
    Format/Info                 : Advanced Video Codec
    Format profile              : 
    Format settings, CABAC      : Yes
    Format settings, RefFrames  : 8 frames
    Codec ID                    : V_MPEG4/ISO/AVC
    Duration                    : 1 h 58 min
    Bit rate                    : 2 450 kb/s
    Width                       : 1 280 pixels
    Height                      : 544 pixels
    Display aspect ratio        : 2.35:1
    Frame rate mode             : Constant
    Frame rate                  : 24.000 FPS
    Color space                 : YUV
    Chroma subsampling          : 4:2:0
    Bit depth                   : 8 bits
    Scan type                   : Progressive
    Bits/(Pixel*Frame)          : 0.147
    Stream size                 : 1.98 GiB (84%)
    Writing library             : x264 core 148 r2638 7599210
    Encoding settings           : cabac=1 / ref=8 / deblock=1:0:0 / analyse=0x3:0x113 / me=umh / subme=9 / psy=1 / psy_rd=1.00:0.00 / mixed_ref=1 / me_range=16 / chroma_me=1 / trellis=1 / 8x8dct=1 / cqm=0 / deadzone=21,11 / fast_pskip=1 / chroma_qp_offset=-2 / threads=8 / lookahead_threads=1 / sliced_threads=0 / nr=0 / decimate=1 / interlaced=0 / bluray_compat=0 / constrained_intra=0 / bframes=5 / b_pyramid=2 / b_adapt=1 / b_bias=0 / direct=1 / weightb=1 / open_gop=0 / weightp=2 / keyint=250 / keyint_min=24 / scenecut=40 / intra_refresh=0 / rc_lookahead=40 / rc=2pass / mbtree=1 / bitrate=2450 / ratetol=1.0 / qcomp=0.60 / qpmin=0 / qpmax=69 / qpstep=4 / cplxblur=20.0 / qblur=0.5 / vbv_maxrate=20000 / vbv_bufsize=15000 / nal_hrd=none / filler=0 / ip_ratio=1.40 / aq=1:1.00
    Language                    : English
    Default                     : Yes
    Forced                      : No
    Color range                 : Limited
    Color primaries             : BT.709
    Transfer characteristics    : BT.709
    Matrix coefficients         : BT.709
    
    Audio
    ID                          : 2
    Format                      : AC-3
    Format/Info                 : Audio Coding 3
    Format settings, Endianness : Big
    Codec ID                    : A_AC3
    Duration                    : 1 h 58 min
    Bit rate mode               : Constant
    Bit rate                    : 384 kb/s
    Channel(s)                  : 6 channels
    Channel positions           : Front: L C R, Side: L R, LFE
    Sampling rate               : 48.0 kHz
    Frame rate                  : 31.250 FPS (1536 SPF)
    Bit depth                   : 16 bits
    Compression mode            : Lossy
    Stream size                 : 325 MiB (14%)
    Language                    : English
    Service kind                : Complete Main
    Default                     : Yes
    Forced                      : Yes
    
    Text
    ID                          : 3
    Format                      : VobSub
    Codec ID                    : S_VOBSUB
    Codec ID/Info               : Picture based subtitle format used on DVDs
    Language                    : English
    Default                     : Yes
    Forced                      : No
    Statistics Tags Issue       : mkvmerge v17.0.0 ('Be Ur Friend') 64-bit 2017-10-28 20:24:01 / mkvmerge v4.9.1 ('Ich will') built on Jul 11 2011 23:53:15 2017-11-08 09:20:07
    FromStats_BitRate           : 3061
    FromStats_Duration          : 01:49:42.739000000
    FromStats_FrameCount        : 1282
    FromStats_StreamSize        : 2518904
    
    Menu
    00:00:00.000                : en:00:00:00.000
    00:05:36.500                : en:00:05:36.500
    00:07:55.500                : en:00:07:55.500
    00:10:30.500                : en:00:10:30.500
    00:18:07.500                : en:00:18:07.500
    00:21:16.500                : en:00:21:16.500
    00:26:26.500                : en:00:26:26.500
    00:38:13.500                : en:00:38:13.500
    00:50:07.500                : en:00:50:07.500
    01:00:46.500                : en:01:00:46.500
    01:04:51.500                : en:01:04:51.500
    01:18:49.500                : en:01:18:49.500
    01:32:07.500                : en:01:32:07.500
    01:33:07.500                : en:01:33:07.500
    01:40:26.500                : en:01:40:26.500
    01:46:59.500                : en:01:46:59.500
    01:52:15.500                : en:01:52:15.500
    


    Lipstick Under My Burkha (2016) 720p - BluRay - x264 - DD5.1-NhaNc3

    SINGLE DIRECT FAST LINKS

    
    https://www.heroupload.com/81de32e945edb084/Lipstick.Under.My.Burkha.(2017).720p.BluRay.nHD.x264-NhaNc3.mkv
    


    Comments

    Add Comment!


    Add comment

    Name:*
    E-Mail:
    Comment:
    • winkwinkedsmileam
      belayfeelfellowlaughing
      lollovenorecourse
      requestsadtonguewassat
      cryingwhatbullyangry
    Security Code: *
    reload, if the code cannot be seen