a b c d e f g h i j k l m n o p q r s t u v w x y z 0-9

Housefull 3 (2016) 720p - BluRay - x264 - DD5.1-NhaNc3

  • Views: 10
  • Author: stev
  • Date: 16-10-2020, 20:07
  • Category: Bollywood BluRay - Full HD
  • Rating:
    Description of the movie:

    Housefull 3 (2016) 720p - BluRay - x264 - DD5.1-NhaNc3




    
    Format                      : Matroska
    Format version              : Version 2
    File size                   : 2.68 GiB
    Duration                    : 2 h 14 min
    Overall bit rate            : 2 856 kb/s
    Encoded date                : UTC 2016-10-24 17:21:53
    Writing application         : mkvmerge v4.9.1 ('Ich will') built on Jul 11 2011 23:53:15
    Writing library             : libebml v1.2.1 + libmatroska v1.1.1
    
    Video
    ID                          : 1
    Format                      : AVC
    Format/Info                 : Advanced Video Codec
    Format profile              : 
    Format settings, CABAC      : Yes
    Format settings, RefFrames  : 8 frames
    Codec ID                    : V_MPEG4/ISO/AVC
    Duration                    : 2 h 14 min
    Bit rate                    : 2 425 kb/s
    Width                       : 1 280 pixels
    Height                      : 544 pixels
    Display aspect ratio        : 2.35:1
    Frame rate mode             : Constant
    Frame rate                  : 24.000 FPS
    Color space                 : YUV
    Chroma subsampling          : 4:2:0
    Bit depth                   : 8 bits
    Scan type                   : Progressive
    Bits/(Pixel*Frame)          : 0.145
    Stream size                 : 2.27 GiB (85%)
    Writing library             : x264 core 148 r2705 3f5ed56
    Encoding settings           : cabac=1 / ref=8 / deblock=1:0:0 / analyse=0x3:0x113 / me=umh / subme=9 / psy=1 / psy_rd=1.00:0.00 / mixed_ref=1 / me_range=16 / chroma_me=1 / trellis=1 / 8x8dct=1 / cqm=0 / deadzone=21,11 / fast_pskip=1 / chroma_qp_offset=-2 / threads=8 / lookahead_threads=1 / sliced_threads=0 / nr=0 / decimate=1 / interlaced=0 / bluray_compat=0 / constrained_intra=0 / bframes=5 / b_pyramid=2 / b_adapt=1 / b_bias=0 / direct=1 / weightb=1 / open_gop=0 / weightp=2 / keyint=250 / keyint_min=24 / scenecut=40 / intra_refresh=0 / rc_lookahead=40 / rc=2pass / mbtree=1 / bitrate=2425 / ratetol=1.0 / qcomp=0.60 / qpmin=0 / qpmax=69 / qpstep=4 / cplxblur=20.0 / qblur=0.5 / vbv_maxrate=20000 / vbv_bufsize=15000 / nal_hrd=none / filler=0 / ip_ratio=1.40 / aq=1:1.00
    Language                    : English
    Default                     : Yes
    Forced                      : No
    Color range                 : Limited
    Color primaries             : BT.709
    Transfer characteristics    : BT.709
    Matrix coefficients         : BT.709
    
    Audio
    ID                          : 2
    Format                      : AC-3
    Format/Info                 : Audio Coding 3
    Format settings, Endianness : Big
    Codec ID                    : A_AC3
    Duration                    : 2 h 14 min
    Bit rate mode               : Constant
    Bit rate                    : 384 kb/s
    Channel(s)                  : 6 channels
    Channel positions           : Front: L C R, Side: L R, LFE
    Sampling rate               : 48.0 kHz
    Frame rate                  : 31.250 FPS (1536 SPF)
    Bit depth                   : 16 bits
    Compression mode            : Lossy
    Stream size                 : 369 MiB (13%)
    Language                    : English
    Service kind                : Complete Main
    Default                     : Yes
    Forced                      : Yes
    
    Text #1
    ID                          : 3
    Format                      : PGS
    Codec ID                    : S_HDMV/PGS
    Codec ID/Info               : Picture based subtitle format used on BDs/HD-DVDs
    Language                    : English
    Default                     : Yes
    Forced                      : No
    Statistics Tags Issue       : mkvmerge v7.0.0 ('Where We Going') 32bit built on Jun  9 2014 15:08:34 2016-10-05 11:19:11 / mkvmerge v4.9.1 ('Ich will') built on Jul 11 2011 23:53:15 2016-10-24 17:21:53
    FromStats_BitRate           : 19105
    FromStats_Duration          : 02:10:12.708000000
    FromStats_FrameCount        : 3206
    FromStats_StreamSize        : 18658626
    
    Text #2
    ID                          : 4
    Format                      : PGS
    Muxing mode                 : zlib
    Codec ID                    : S_HDMV/PGS
    Codec ID/Info               : Picture based subtitle format used on BDs/HD-DVDs
    Language                    : Arabic
    Default                     : No
    Forced                      : No
    Statistics Tags Issue       : mkvmerge v7.0.0 ('Where We Going') 32bit built on Jun  9 2014 15:08:34 2016-10-05 11:19:11 / mkvmerge v4.9.1 ('Ich will') built on Jul 11 2011 23:53:15 2016-10-24 17:21:53
    FromStats_BitRate           : 15200
    FromStats_Duration          : 02:10:12.666000000
    FromStats_FrameCount        : 3237
    FromStats_StreamSize        : 14844420
    
    Menu
    00:00:00.000                : en:00:00:00.000
    00:01:55.125                : en:00:01:55.125
    00:05:07.000                : en:00:05:07.000
    00:06:53.208                : en:00:06:53.208
    00:12:41.708                : en:00:12:41.708
    00:15:59.667                : en:00:15:59.667
    00:18:38.667                : en:00:18:38.667
    00:30:19.500                : en:00:30:19.500
    00:34:15.000                : en:00:34:15.000
    00:41:04.458                : en:00:41:04.458
    00:44:53.458                : en:00:44:53.458
    00:54:35.417                : en:00:54:35.417
    00:59:00.000                : en:00:59:00.000
    01:02:30.458                : en:01:02:30.458
    01:09:24.000                : en:01:09:24.000
    01:18:31.292                : en:01:18:31.292
    01:26:26.500                : en:01:26:26.500
    01:32:46.208                : en:01:32:46.208
    01:40:02.167                : en:01:40:02.167
    01:44:29.583                : en:01:44:29.583
    01:47:45.417                : en:01:47:45.417
    01:51:20.458                : en:01:51:20.458
    01:53:49.000                : en:01:53:49.000
    01:54:20.167                : en:01:54:20.167
    02:10:29.667                : en:02:10:29.667
    


    Housefull 3 (2016) 720p - BluRay - x264 - DD5.1-NhaNc3

    SINGLE DIRECT FAST LINKS

    
    https://www.heroupload.com/1e4b408aae771624/Housefull.3.2016.720p.BluRay.nHD.x264-NhaNc3.mkv
    


    Comments

    Add Comment!


    Add comment

    Name:*
    E-Mail:
    Comment:
    • winkwinkedsmileam
      belayfeelfellowlaughing
      lollovenorecourse
      requestsadtonguewassat
      cryingwhatbullyangry
    Security Code: *
    reload, if the code cannot be seen