a b c d e f g h i j k l m n o p q r s t u v w x y z 0-9

Baaghi (2016) 720p - BluRay - x264 - DD5.1-NhaNc3

  • Views: 18
  • Author: stev
  • Date: 16-10-2020, 20:15
  • Category: Bollywood BluRay - Full HD
  • Rating:
    Description of the movie:

    Baaghi (2016) 720p - BluRay - x264 - DD5.1-NhaNc3




    
    Format                      : Matroska
    Format version              : Version 2
    File size                   : 2.64 GiB
    Duration                    : 2 h 14 min
    Overall bit rate            : 2 815 kb/s
    Encoded date                : UTC 2016-07-23 21:55:16
    Writing application         : mkvmerge v4.9.1 ('Ich will') built on Jul 11 2011 23:53:15
    Writing library             : libebml v1.2.1 + libmatroska v1.1.1
    
    Video
    ID                          : 1
    Format                      : AVC
    Format/Info                 : Advanced Video Codec
    Format profile              : 
    Format settings, CABAC      : Yes
    Format settings, RefFrames  : 8 frames
    Codec ID                    : V_MPEG4/ISO/AVC
    Duration                    : 2 h 14 min
    Bit rate                    : 2 429 kb/s
    Width                       : 1 280 pixels
    Height                      : 544 pixels
    Display aspect ratio        : 2.35:1
    Frame rate mode             : Constant
    Frame rate                  : 24.000 FPS
    Color space                 : YUV
    Chroma subsampling          : 4:2:0
    Bit depth                   : 8 bits
    Scan type                   : Progressive
    Bits/(Pixel*Frame)          : 0.145
    Stream size                 : 2.23 GiB (84%)
    Writing library             : x264 core 146 r2538 121396c
    Encoding settings           : cabac=1 / ref=8 / deblock=1:0:0 / analyse=0x3:0x113 / me=umh / subme=9 / psy=1 / psy_rd=1.00:0.00 / mixed_ref=1 / me_range=16 / chroma_me=1 / trellis=1 / 8x8dct=1 / cqm=0 / deadzone=21,11 / fast_pskip=1 / chroma_qp_offset=-2 / threads=8 / lookahead_threads=1 / sliced_threads=0 / nr=0 / decimate=1 / interlaced=0 / bluray_compat=0 / constrained_intra=0 / bframes=5 / b_pyramid=2 / b_adapt=1 / b_bias=0 / direct=1 / weightb=1 / open_gop=0 / weightp=2 / keyint=250 / keyint_min=24 / scenecut=40 / intra_refresh=0 / rc_lookahead=40 / rc=2pass / mbtree=1 / bitrate=2429 / ratetol=1.0 / qcomp=0.60 / qpmin=0 / qpmax=69 / qpstep=4 / cplxblur=20.0 / qblur=0.5 / vbv_maxrate=20000 / vbv_bufsize=15000 / nal_hrd=none / filler=0 / ip_ratio=1.40 / aq=1:1.00
    Language                    : English
    Default                     : Yes
    Forced                      : No
    Color range                 : Limited
    Color primaries             : BT.709
    Transfer characteristics    : BT.709
    Matrix coefficients         : BT.709
    
    Audio
    ID                          : 2
    Format                      : AC-3
    Format/Info                 : Audio Coding 3
    Format settings, Endianness : Big
    Codec ID                    : A_AC3
    Duration                    : 2 h 14 min
    Bit rate mode               : Constant
    Bit rate                    : 384 kb/s
    Channel(s)                  : 6 channels
    Channel positions           : Front: L C R, Side: L R, LFE
    Sampling rate               : 48.0 kHz
    Frame rate                  : 31.250 FPS (1536 SPF)
    Bit depth                   : 16 bits
    Compression mode            : Lossy
    Stream size                 : 368 MiB (14%)
    Language                    : English
    Service kind                : Complete Main
    Default                     : Yes
    Forced                      : Yes
    
    Text
    ID                          : 3
    Format                      : UTF-8
    Codec ID                    : S_TEXT/UTF8
    Codec ID/Info               : UTF-8 Plain Text
    Title                       : DDR
    Language                    : English
    Default                     : Yes
    Forced                      : No
    Statistics Tags Issue       : mkvmerge v9.2.0 ('Photograph') 32bit 2016-07-22 04:02:32 / mkvmerge v4.9.1 ('Ich will') built on Jul 11 2011 23:53:15 2016-07-23 21:55:16
    FromStats_BitRate           : 36
    FromStats_Duration          : 02:10:02.890000000
    FromStats_FrameCount        : 1312
    FromStats_StreamSize        : 35537
    
    Menu
    00:00:00.000                : en:00:00:00.000
    00:04:23.167                : en:00:04:23.167
    00:11:18.167                : en:00:11:18.167
    00:17:58.833                : en:00:17:58.833
    00:21:53.208                : en:00:21:53.208
    00:24:37.583                : en:00:24:37.583
    00:29:44.042                : en:00:29:44.042
    00:42:59.000                : en:00:42:59.000
    00:45:54.833                : en:00:45:54.833
    00:46:42.000                : en:00:46:42.000
    00:58:35.250                : en:00:58:35.250
    01:08:24.500                : en:01:08:24.500
    01:16:30.625                : en:01:16:30.625
    01:23:21.000                : en:01:23:21.000
    01:32:19.500                : en:01:32:19.500
    01:40:20.292                : en:01:40:20.292
    01:42:29.417                : en:01:42:29.417
    01:46:06.667                : en:01:46:06.667
    01:48:37.625                : en:01:48:37.625
    02:04:55.458                : en:02:04:55.458
    02:10:45.500                : en:02:10:45.500
    


    Baaghi (2016) 720p - BluRay - x264 - DD5.1-NhaNc3

    SINGLE DIRECT FAST LINKS

    
    https://www.heroupload.com/1cfe4dcb94f4d92b/Baaghi.2016.720p.BluRay.nHD.x264-NhaNc3.mkv
    


    Comments

    Add Comment!


    Add comment

    Name:*
    E-Mail:
    Comment:
    • winkwinkedsmileam
      belayfeelfellowlaughing
      lollovenorecourse
      requestsadtonguewassat
      cryingwhatbullyangry
    Security Code: *
    reload, if the code cannot be seen