a b c d e f g h i j k l m n o p q r s t u v w x y z 0-9

Ae Dil Hai Mushkil (2016) 720p - BluRay - x264 - DD5.1-NhaNc3

  • Views: 18
  • Author: stev
  • Date: 16-10-2020, 20:18
  • Category: Bollywood BluRay - Full HD
  • Rating:
    Description of the movie:

    Ae Dil Hai Mushkil (2016) 720p - BluRay - x264 - DD5.1-NhaNc3




    
    Format                      : Matroska
    Format version              : Version 2
    File size                   : 3.02 GiB
    Duration                    : 2 h 34 min
    Overall bit rate            : 2 809 kb/s
    Encoded date                : UTC 2017-11-08 03:20:47
    Writing application         : mkvmerge v4.9.1 ('Ich will') built on Jul 11 2011 23:53:15
    Writing library             : libebml v1.2.1 + libmatroska v1.1.1
    
    Video
    ID                          : 1
    Format                      : AVC
    Format/Info                 : Advanced Video Codec
    Format profile              : 
    Format settings, CABAC      : Yes
    Format settings, RefFrames  : 8 frames
    Codec ID                    : V_MPEG4/ISO/AVC
    Duration                    : 2 h 34 min
    Bit rate                    : 2 429 kb/s
    Width                       : 1 280 pixels
    Height                      : 532 pixels
    Display aspect ratio        : 2.40:1
    Frame rate mode             : Constant
    Frame rate                  : 24.000 FPS
    Color space                 : YUV
    Chroma subsampling          : 4:2:0
    Bit depth                   : 8 bits
    Scan type                   : Progressive
    Bits/(Pixel*Frame)          : 0.149
    Stream size                 : 2.55 GiB (84%)
    Writing library             : x264 core 148 r2638 7599210
    Encoding settings           : cabac=1 / ref=8 / deblock=1:0:0 / analyse=0x3:0x113 / me=umh / subme=9 / psy=1 / psy_rd=1.00:0.00 / mixed_ref=1 / me_range=16 / chroma_me=1 / trellis=1 / 8x8dct=1 / cqm=0 / deadzone=21,11 / fast_pskip=1 / chroma_qp_offset=-2 / threads=8 / lookahead_threads=1 / sliced_threads=0 / nr=0 / decimate=1 / interlaced=0 / bluray_compat=0 / constrained_intra=0 / bframes=5 / b_pyramid=2 / b_adapt=1 / b_bias=0 / direct=1 / weightb=1 / open_gop=0 / weightp=2 / keyint=250 / keyint_min=24 / scenecut=40 / intra_refresh=0 / rc_lookahead=40 / rc=2pass / mbtree=1 / bitrate=2429 / ratetol=1.0 / qcomp=0.60 / qpmin=0 / qpmax=69 / qpstep=4 / cplxblur=20.0 / qblur=0.5 / vbv_maxrate=20000 / vbv_bufsize=15000 / nal_hrd=none / filler=0 / ip_ratio=1.40 / aq=1:1.00
    Language                    : English
    Default                     : Yes
    Forced                      : No
    Color range                 : Limited
    Color primaries             : BT.709
    Transfer characteristics    : BT.709
    Matrix coefficients         : BT.709
    
    Audio
    ID                          : 2
    Format                      : AC-3
    Format/Info                 : Audio Coding 3
    Format settings, Endianness : Big
    Codec ID                    : A_AC3
    Duration                    : 2 h 34 min
    Bit rate mode               : Constant
    Bit rate                    : 384 kb/s
    Channel(s)                  : 6 channels
    Channel positions           : Front: L C R, Side: L R, LFE
    Sampling rate               : 48.0 kHz
    Frame rate                  : 31.250 FPS (1536 SPF)
    Bit depth                   : 16 bits
    Compression mode            : Lossy
    Stream size                 : 423 MiB (14%)
    Language                    : English
    Service kind                : Complete Main
    Default                     : Yes
    Forced                      : Yes
    
    Menu
    00:00:00.000                : hi:00:00:00.000
    00:04:11.000                : hi:00:07:08.000
    00:13:04.791                : hi:00:16:01.791
    00:19:44.291                : hi:00:22:41.291
    00:23:08.625                : hi:00:26:05.625
    00:28:16.208                : hi:00:31:13.208
    00:31:01.833                : hi:00:33:58.833
    00:34:27.000                : hi:00:37:24.000
    00:41:41.208                : hi:00:44:38.208
    00:44:24.000                : hi:00:47:21.000
    00:49:21.708                : hi:00:52:18.708
    00:53:42.083                : hi:00:56:39.083
    00:59:31.250                : hi:01:02:28.250
    01:03:17.833                : hi:01:06:14.833
    01:07:36.500                : hi:01:10:33.500
    01:09:28.708                : hi:01:12:25.708
    01:13:37.875                : hi:01:16:34.875
    01:19:27.666                : hi:01:22:24.666
    01:26:17.000                : hi:01:29:14.000
    01:31:23.500                : hi:01:34:20.500
    01:40:10.958                : hi:01:43:07.958
    01:49:45.875                : hi:01:52:42.875
    01:52:31.875                : hi:01:55:28.875
    01:57:31.625                : hi:02:00:28.625
    02:04:13.541                : hi:02:07:10.541
    02:12:27.958                : hi:02:15:24.958
    02:16:57.333                : hi:02:19:54.333
    02:25:11.291                : hi:DRs
    02:29:50.000                : hi:02:32:47.000
    


    Ae Dil Hai Mushkil (2016) 720p - BluRay - x264 - DD5.1-NhaNc3

    SINGLE DIRECT FAST LINKS

    
    https://www.heroupload.com/7562308fe05677bd/Ae.Dil.Hai.Mushkil.2016.720p.BluRay.nHD.x264-NhaNc3.mkv
    


    Comments

    Add Comment!


    Add comment

    Name:*
    E-Mail:
    Comment:
    • winkwinkedsmileam
      belayfeelfellowlaughing
      lollovenorecourse
      requestsadtonguewassat
      cryingwhatbullyangry
    Security Code: *
    reload, if the code cannot be seen