a b c d e f g h i j k l m n o p q r s t u v w x y z 0-9

Chalo Ishq Ladaaye (2002) 480p - HD-DVDRip - AVC - AAC-Bollywooda2z

  • Views: 30
  • Author: stev
  • Date: 6-09-2020, 17:33
  • Category: Bollywood DVDRips - HDRips
  • Rating:
    Description of the movie:

    Chalo Ishq Ladaaye (2002) 480p - HD-DVDRip - AVC - AAC-Bollywooda2z



    
    General
    Complete name               : E:\Download C 2\2\Chalo.Ishq.Ladaaye.480p.HD-DVD.AVC.AAC-BollywoodA2Z.mp4
    Format                      : MPEG-4
    Format profile              : Base Media
    Codec ID                    : isom (isom/iso2/avc1/mp41)
    File size                   : 843 MiB
    Duration                    : 2 h 10 min
    Overall bit rate            : 902 kb/s
    Writing application         : Lavf58.9.100
    
    Video
    ID                          : 1
    Format                      : AVC
    Format/Info                 : Advanced Video Codec
    Format profile              : 
    Format settings, CABAC      : Yes
    Format settings, RefFrames  : 4 frames
    Format settings, GOP        : M=3, N=25
    Codec ID                    : avc1
    Codec ID/Info               : Advanced Video Coding
    Duration                    : 2 h 10 min
    Bit rate                    : 800 kb/s
    Width                       : 720 pixels
    Height                      : 404 pixels
    Display aspect ratio        : 16:9
    Frame rate mode             : Constant
    Frame rate                  : 25.000 FPS
    Color space                 : YUV
    Chroma subsampling          : 4:2:0
    Bit depth                   : 8 bits
    Scan type                   : Progressive
    Bits/(Pixel*Frame)          : 0.110
    Stream size                 : 747 MiB (89%)
    Writing library             : Zencoder Video Encoding System
    Color range                 : Limited
    Color primaries             : BT.601 NTSC
    Transfer characteristics    : BT.709
    Matrix coefficients         : BT.601
    
    Audio
    ID                          : 2
    Format                      : AAC
    Format/Info                 : Advanced Audio Codec
    Format profile              : LC
    Codec ID                    : 40
    Duration                    : 2 h 10 min
    Bit rate mode               : Constant
    Bit rate                    : 96.0 kb/s
    Channel(s)                  : 2 channels
    Channel positions           : Front: L R
    Sampling rate               : 48.0 kHz
    Frame rate                  : 46.875 FPS (1024 SPF)
    Compression mode            : Lossy
    Stream size                 : 89.5 MiB (11%)
    Default                     : Yes
    Alternate group             : 1
    


    Chalo Ishq Ladaaye (2002) 480p - HD-DVDRip - AVC - AAC-Bollywooda2z
    SINGLE DIRECT FAST LINKS

    
    https://www.heroupload.com/317e6872eae4f4db/Chalo.Ishq.Ladaaye.480p.HD-DVD.AVC.AAC-BollywoodA2Z.mp4
    


    Comments

    Add Comment!


    Add comment

    Name:*
    E-Mail:
    Comment:
    • winkwinkedsmileam
      belayfeelfellowlaughing
      lollovenorecourse
      requestsadtonguewassat
      cryingwhatbullyangry
    Security Code: *
    reload, if the code cannot be seen