a b c d e f g h i j k l m n o p q r s t u v w x y z 0-9

Jaani Dushman Ek Anokhi Kahani (2002) 1080p - WEB-HD - AVC - AAC-Bollywooda2z

  • Views: 207
  • Author: stev
  • Date: 24-04-2019, 17:39
  • Category: J / 2002 / Bollywood BluRay - Full HD
  • Rating:
    Description of the movie:
    Jaani Dushman Ek Anokhi Kahani (2002) 1080p - WEB-HD - AVC - AAC-Bollywooda2z





    Format                                   : MPEG-4
    Format profile                           : Base Media
    Codec ID                                 : isom (isom/iso2/avc1/mp41)
    File size                                : 2.75 GiB
    Duration                                 : 2 h 32 min
    Overall bit rate mode                    : Variable
    Overall bit rate                         : 2 573 kb/s
    Writing application                      : Lavf58.9.100
    
    Video
    ID                                       : 1
    Format                                   : AVC
    Format/Info                              : Advanced Video Codec
    Format profile                           : [email protected]
    Format settings                          : CABAC / 5 Ref Frames
    Format settings, CABAC                   : Yes
    Format settings, RefFrames               : 5 frames
    Codec ID                                 : avc1
    Codec ID/Info                            : Advanced Video Coding
    Duration                                 : 2 h 32 min
    Bit rate                                 : 2 500 kb/s
    Width                                    : 1 920 pixels
    Height                                   : 1 080 pixels
    Display aspect ratio                     : 16:9
    Frame rate mode                          : Constant
    Frame rate                               : 25.000 FPS
    Color space                              : YUV
    Chroma subsampling                       : 4:2:0
    Bit depth                                : 8 bits
    Scan type                                : Progressive
    Bits/(Pixel*Frame)                       : 0.048
    Stream size                              : 2.60 GiB (95%)
    Writing library                          : x264 core 148 r2721 72d53ab
    Encoding settings                        : cabac=1 / ref=6 / deblock=1:0:0 / analyse=0x3:0x111 / me=hex / subme=7 / psy=1 / psy_rd=1.00:0.00 / mixed_ref=1 / me_range=16 / chroma_me=1 / trellis=1 / 8x8dct=1 / cqm=0 / deadzone=21,11 / fast_pskip=1 / chroma_qp_offset=-2 / threads=4 / lookahead_threads=1 / sliced_threads=0 / nr=0 / decimate=1 / interlaced=0 / bluray_compat=0 / stitchable=1 / constrained_intra=0 / bframes=16 / b_pyramid=1 / b_adapt=1 / b_bias=0 / direct=1 / weightb=1 / open_gop=0 / weightp=2 / keyint=86400 / keyint_min=20 / scenecut=40 / intra_refresh=0 / rc_lookahead=40 / rc=cbr / mbtree=1 / bitrate=2500 / ratetol=1.0 / qcomp=0.60 / qpmin=10 / qpmax=50 / qpstep=4 / vbv_maxrate=2500 / vbv_bufsize=5000 / nal_hrd=none / filler=0 / ip_ratio=1.41 / aq=1:1.00
    Codec configuration box                  : avcC
    
    Audio
    ID                                       : 2
    Format                                   : AAC LC
    Format/Info                              : Advanced Audio Codec Low Complexity
    Codec ID                                 : mp4a-40-2
    Duration                                 : 2 h 32 min
    Bit rate mode                            : Variable
    Bit rate                                 : 128 kb/s
    Maximum bit rate                         : 130 kb/s
    Channel(s)                               : 2 channels
    Channel layout                           : L R
    Sampling rate                            : 44.1 kHz
    Frame rate                               : 43.066 FPS (1024 SPF)
    Compression mode                         : Lossy
    Stream size                              : 140 MiB (5%)
    Default                                  : Yes
    Alternate group                          : 1
    
    


    Jaani Dushman Ek Anokhi Kahani (2002) 1080p - WEB-HD - AVC - AAC-Bollywooda2z
    SINGLE DIRECT FAST LINKS

    
    https://www.heroupload.com/2b511bd14179dfed/Jaani.Dushman.Ek.Anokhi.Kahani.Hindi.1080p.WEB-HD.AVC.AAC-BollywoodA2z.mp4



    Buy Premium From My Links & Support Me

    Comments

    Add Comment!


    Add comment

    Name:*
    E-Mail:
    Comment:
    • winkwinkedsmileam
      belayfeelfellowlaughing
      lollovenorecourse
      requestsadtonguewassat
      cryingwhatbullyangry
    Security Code: *
    reload, if the code cannot be seen