a b c d e f g h i j k l m n o p q r s t u v w x y z 0-9

Dev (2019) Tamil - 1080p - PreDVDRip - x264 - MP3-MTR

  • Views: 129
  • Author: stev
  • Date: 14-02-2019, 23:02
  • Category: Tamil Movies
  • Rating:
    Description of the movie:
    Dev (2019) Tamil - 1080p - PreDVDRip - x264 - MP3-MTR





    Format                                   : Matroska
    Format version                           : Version 4
    File size                                : 2.53 GiB
    Duration                                 : 2 h 27 min
    Overall bit rate mode                    : Variable
    Overall bit rate                         : 2 462 kb/s
    Encoded date                             : UTC 2019-02-14 17:06:15
    Writing application                      : mkvmerge v29.0.0 ('Like It Or Not') 32-bit
    Writing library                          : libebml v1.3.6 + libmatroska v1.4.9
    
    Video
    ID                                       : 1
    Format                                   : AVC
    Format/Info                              : Advanced Video Codec
    Format profile                           : [email protected]
    Format settings                          : CABAC / 4 Ref Frames
    Format settings, CABAC                   : Yes
    Format settings, RefFrames               : 4 frames
    Codec ID                                 : V_MPEG4/ISO/AVC
    Duration                                 : 2 h 27 min
    Bit rate                                 : 2 341 kb/s
    Width                                    : 1 920 pixels
    Height                                   : 816 pixels
    Display aspect ratio                     : 2.35:1
    Frame rate mode                          : Constant
    Frame rate                               : 25.000 FPS
    Color space                              : YUV
    Chroma subsampling                       : 4:2:0
    Bit depth                                : 8 bits
    Scan type                                : Progressive
    Bits/(Pixel*Frame)                       : 0.060
    Stream size                              : 2.41 GiB (95%)
    Writing library                          : x264 core 157 r2935 545de2f
    Encoding settings                        : cabac=1 / ref=2 / deblock=1:0:0 / analyse=0x3:0x113 / me=hex / subme=4 / psy=1 / psy_rd=1.00:0.00 / mixed_ref=0 / me_range=16 / chroma_me=1 / trellis=1 / 8x8dct=1 / cqm=0 / deadzone=21,11 / fast_pskip=1 / chroma_qp_offset=0 / threads=25 / lookahead_threads=6 / sliced_threads=0 / nr=0 / decimate=1 / interlaced=0 / bluray_compat=0 / constrained_intra=0 / bframes=3 / b_pyramid=2 / b_adapt=1 / b_bias=0 / direct=1 / weightb=1 / open_gop=0 / weightp=1 / keyint=250 / keyint_min=25 / scenecut=40 / intra_refresh=0 / rc_lookahead=20 / rc=abr / mbtree=1 / bitrate=2341 / ratetol=1.0 / qcomp=0.60 / qpmin=0 / qpmax=69 / qpstep=4 / ip_ratio=1.40 / aq=1:1.00
    Language                                 : English
    Default                                  : Yes
    Forced                                   : No
    
    Audio
    ID                                       : 2
    Format                                   : MPEG Audio
    Format version                           : Version 2
    Format profile                           : Layer 3
    Format settings                          : Joint stereo / MS Stereo
    Codec ID                                 : A_MPEG/L3
    Codec ID/Hint                            : MP3
    Duration                                 : 2 h 27 min
    Bit rate mode                            : Variable
    Bit rate                                 : 122 kb/s
    Channel(s)                               : 2 channels
    Sampling rate                            : 22.05 kHz
    Frame rate                               : 38.280 FPS (576 SPF)
    Compression mode                         : Lossy
    Stream size                              : 128 MiB (5%)
    Language                                 : English
    Default                                  : Yes
    Forced                                   : No
    
    


    Dev (2019) Tamil - 1080p - PreDVDRip - x264 - MP3-MTRDev (2019) Tamil - 1080p - PreDVDRip - x264 - MP3-MTRDev (2019) Tamil - 1080p - PreDVDRip - x264 - MP3-MTRDev (2019) Tamil - 1080p - PreDVDRip - x264 - MP3-MTRDev (2019) Tamil - 1080p - PreDVDRip - x264 - MP3-MTRDev (2019) Tamil - 1080p - PreDVDRip - x264 - MP3-MTR

    SINGLE DIRECT FAST LINKS

    https://www.heroupload.com/d3374cbf699550c6/Dev.2019.Tamil.1080p.PreDVDRip.x264-MTR.mkv


    700MB LINKS

    
    https://www.heroupload.com/9c4b28132cacb5c9/Dev.2019.Tamil.1080p.PreDVDRip.x264-MTR.part1.rar
    https://www.heroupload.com/cbe4ee7872a08513/Dev.2019.Tamil.1080p.PreDVDRip.x264-MTR.part2.rar
    https://www.heroupload.com/6149e9c4fe256d3c/Dev.2019.Tamil.1080p.PreDVDRip.x264-MTR.part3.rar
    https://www.heroupload.com/7bc838c5003855e7/Dev.2019.Tamil.1080p.PreDVDRip.x264-MTR.part4.rar



    Buy Premium From My Links & Support Me

    Comments

    Add Comment!


    Add comment

    Name:*
    E-Mail:
    Comment:
    • winkwinkedsmileam
      belayfeelfellowlaughing
      lollovenorecourse
      requestsadtonguewassat
      cryingwhatbullyangry
    Security Code: *
    reload, if the code cannot be seen