a b c d e f g h i j k l m n o p q r s t u v w x y z 0-9

Dev (2019) Tamil - 720p - HDRip - x264 - DD5.1 - ESub-TMV

  • Views: 105
  • Author: stev
  • Date: 20-03-2019, 02:39
  • Category: Telugu Movies
  • Rating:
    Description of the movie:
    Dev (2019) Tamil - 720p - HDRip - x264 - DD5.1 - ESub-TMV





    Format                                   : Matroska
    Format version                           : Version 4
    File size                                : 1.38 GiB
    Duration                                 : 2 h 32 min
    Overall bit rate                         : 1 296 kb/s
    Encoded date                             : UTC 2019-03-19 12:19:54
    Writing application                      : mkvmerge v29.0.0 ('Like It Or Not') 32-bit
    Writing library                          : libebml v1.3.6 + libmatroska v1.4.9
    
    Video
    ID                                       : 1
    Format                                   : AVC
    Format/Info                              : Advanced Video Codec
    Format profile                           : [email protected]
    Format settings                          : CABAC / 4 Ref Frames
    Format settings, CABAC                   : Yes
    Format settings, RefFrames               : 4 frames
    Codec ID                                 : V_MPEG4/ISO/AVC
    Duration                                 : 2 h 32 min
    Bit rate                                 : 1 176 kb/s
    Width                                    : 1 280 pixels
    Height                                   : 536 pixels
    Display aspect ratio                     : 2.40:1
    Frame rate mode                          : Constant
    Frame rate                               : 24.000 FPS
    Color space                              : YUV
    Chroma subsampling                       : 4:2:0
    Bit depth                                : 8 bits
    Scan type                                : Progressive
    Bits/(Pixel*Frame)                       : 0.071
    Stream size                              : 1.24 GiB (90%)
    Writing library                          : x264 core 157 r2935 545de2f
    Encoding settings                        : cabac=1 / ref=1 / deblock=1:0:0 / analyse=0x3:0x113 / me=hex / subme=2 / psy=1 / psy_rd=1.00:0.00 / mixed_ref=0 / me_range=16 / chroma_me=1 / trellis=0 / 8x8dct=1 / cqm=0 / deadzone=21,11 / fast_pskip=1 / chroma_qp_offset=0 / threads=17 / lookahead_threads=4 / sliced_threads=0 / nr=0 / decimate=1 / interlaced=0 / bluray_compat=0 / constrained_intra=0 / bframes=3 / b_pyramid=2 / b_adapt=1 / b_bias=0 / direct=1 / weightb=1 / open_gop=0 / weightp=1 / keyint=240 / keyint_min=24 / scenecut=40 / intra_refresh=0 / rc_lookahead=10 / rc=abr / mbtree=1 / bitrate=1176 / ratetol=1.0 / qcomp=0.60 / qpmin=0 / qpmax=69 / qpstep=4 / ip_ratio=1.40 / aq=1:1.00
    Language                                 : Tamil
    Default                                  : Yes
    Forced                                   : No
    
    Audio
    ID                                       : 2
    Format                                   : AC-3
    Format/Info                              : Audio Coding 3
    Commercial name                          : Dolby Digital
    Codec ID                                 : A_AC3
    Duration                                 : 2 h 32 min
    Bit rate mode                            : Constant
    Bit rate                                 : 128 kb/s
    Channel(s)                               : 6 channels
    Channel layout                           : L R C LFE Ls Rs
    Sampling rate                            : 44.1 kHz
    Frame rate                               : 28.711 FPS (1536 SPF)
    Bit depth                                : 16 bits
    Compression mode                         : Lossy
    Stream size                              : 140 MiB (10%)
    Language                                 : Tamil
    Service kind                             : Complete Main
    Default                                  : Yes
    Forced                                   : No
    
    Text
    ID                                       : 3
    Format                                   : UTF-8
    Codec ID                                 : S_TEXT/UTF8
    Codec ID/Info                            : UTF-8 Plain Text
    Duration                                 : 2 h 28 min
    Bit rate                                 : 73 b/s
    Count of elements                        : 2642
    Stream size                              : 80.4 KiB (0%)
    Language                                 : English
    Default                                  : No
    Forced                                   : No
    
    

    Dev (2019) Tamil - 720p - HDRip - x264 - DD5.1 - ESub-TMVDev (2019) Tamil - 720p - HDRip - x264 - DD5.1 - ESub-TMVDev (2019) Tamil - 720p - HDRip - x264 - DD5.1 - ESub-TMVDev (2019) Tamil - 720p - HDRip - x264 - DD5.1 - ESub-TMVDev (2019) Tamil - 720p - HDRip - x264 - DD5.1 - ESub-TMV

    SINGLE DIRECT FAST LINKS

    
    https://www.heroupload.com/18df75e12b55a819/Dev.2019.Tamil.HDRip.720p.x264.DD.5.1.ESub-TMV.mkv






    Buy Premium From My Links & Support Me

    Comments

    Add Comment!


    Add comment

    Name:*
    E-Mail:
    Comment:
    • winkwinkedsmileam
      belayfeelfellowlaughing
      lollovenorecourse
      requestsadtonguewassat
      cryingwhatbullyangry
    Security Code: *
    reload, if the code cannot be seen