a b c d e f g h i j k l m n o p q r s t u v w x y z 0-9

Anjali CBI (2019) Telugu - WEB-DL - 1080p - UNTOUCHED - AVC -DD5.1 - ESub-TMV

  • Views: 444
  • Author: stev
  • Date: 30-03-2019, 12:49
  • Category: Telugu Movies
  • Rating:
    Description of the movie:
    Anjali CBI (2019) Telugu - WEB-DL - 1080p - UNTOUCHED - AVC -DD5.1 - ESub-TMV





    Format                                   : Matroska
    Format version                           : Version 4
    File size                                : 10.3 GiB
    Duration                                 : 2 h 26 min
    Overall bit rate                         : 10.0 Mb/s
    Encoded date                             : UTC 2019-03-28 20:00:23
    Writing application                      : mkvmerge v25.0.0 ('Prog Noir') 32-bit
    Writing library                          : libebml v1.3.6 + libmatroska v1.4.9
    
    Video
    ID                                       : 1
    Format                                   : AVC
    Format/Info                              : Advanced Video Codec
    Format profile                           : [email protected]
    Format settings                          : CABAC / 4 Ref Frames
    Format settings, CABAC                   : Yes
    Format settings, RefFrames               : 4 frames
    Format settings, GOP                     : M=4, N=48
    Codec ID                                 : V_MPEG4/ISO/AVC
    Duration                                 : 2 h 26 min
    Bit rate mode                            : Constant
    Bit rate                                 : 10 000 kb/s
    Width                                    : 1 920 pixels
    Height                                   : 816 pixels
    Display aspect ratio                     : 2.35:1
    Frame rate mode                          : Constant
    Frame rate                               : 24.000 FPS
    Color space                              : YUV
    Chroma subsampling                       : 4:2:0
    Bit depth                                : 8 bits
    Scan type                                : Progressive
    Bits/(Pixel*Frame)                       : 0.266
    Stream size                              : 10.0 GiB (97%)
    Default                                  : Yes
    Forced                                   : No
    Color range                              : Limited
    Color primaries                          : BT.709
    Transfer characteristics                 : BT.709
    Matrix coefficients                      : BT.709
    
    Audio
    ID                                       : 2
    Format                                   : E-AC-3
    Format/Info                              : Enhanced AC-3
    Commercial name                          : Dolby Digital Plus
    Codec ID                                 : A_EAC3
    Duration                                 : 2 h 26 min
    Bit rate mode                            : Constant
    Bit rate                                 : 256 kb/s
    Channel(s)                               : 6 channels
    Channel layout                           : L R C LFE Ls Rs
    Sampling rate                            : 48.0 kHz
    Frame rate                               : 31.250 FPS (1536 SPF)
    Compression mode                         : Lossy
    Stream size                              : 269 MiB (3%)
    Title                                    : Telugu
    Language                                 : Telugu
    Service kind                             : Complete Main
    Default                                  : No
    Forced                                   : No
    
    Text
    ID                                       : 3
    Format                                   : UTF-8
    Codec ID                                 : S_TEXT/UTF8
    Codec ID/Info                            : UTF-8 Plain Text
    Duration                                 : 2 h 22 min
    Bit rate                                 : 77 b/s
    Count of elements                        : 2401
    Stream size                              : 80.4 KiB (0%)
    Title                                    : English [SDH]
    Language                                 : English
    Default                                  : No
    Forced                                   : No
    
    



    Anjali CBI (2019) Telugu - WEB-DL - 1080p - UNTOUCHED - AVC -DD5.1 - ESub-TMVAnjali CBI (2019) Telugu - WEB-DL - 1080p - UNTOUCHED - AVC -DD5.1 - ESub-TMVAnjali CBI (2019) Telugu - WEB-DL - 1080p - UNTOUCHED - AVC -DD5.1 - ESub-TMVAnjali CBI (2019) Telugu - WEB-DL - 1080p - UNTOUCHED - AVC -DD5.1 - ESub-TMVAnjali CBI (2019) Telugu - WEB-DL - 1080p - UNTOUCHED - AVC -DD5.1 - ESub-TMVAnjali CBI (2019) Telugu - WEB-DL - 1080p - UNTOUCHED - AVC -DD5.1 - ESub-TMV


    SINGLE DIRECT FAST LINKS

    https://www.heroupload.com/afc607572383e747/Anjali.CBI.2019.Telugu.Original.Version.WEB-DL.1080p.UNTOUCHED.AVC.DD5.1.ESub-TMV.mkv


    1GB LINKS

    
    https://www.heroupload.com/05349f1eae9ee27b/Anjali.CBI.2019.Telugu.Original.Version.WEB-DL.1080p.UNTOUCHED.AVC.DD5.1.ESub-TMV.part01.rar
    https://www.heroupload.com/5d9fc223337e50f8/Anjali.CBI.2019.Telugu.Original.Version.WEB-DL.1080p.UNTOUCHED.AVC.DD5.1.ESub-TMV.part02.rar
    https://www.heroupload.com/2009065ac6f53bbe/Anjali.CBI.2019.Telugu.Original.Version.WEB-DL.1080p.UNTOUCHED.AVC.DD5.1.ESub-TMV.part03.rar
    https://www.heroupload.com/791e2b6ef7a48376/Anjali.CBI.2019.Telugu.Original.Version.WEB-DL.1080p.UNTOUCHED.AVC.DD5.1.ESub-TMV.part04.rar
    https://www.heroupload.com/2cfe642fc26084b8/Anjali.CBI.2019.Telugu.Original.Version.WEB-DL.1080p.UNTOUCHED.AVC.DD5.1.ESub-TMV.part05.rar
    https://www.heroupload.com/448b466bbfb5277c/Anjali.CBI.2019.Telugu.Original.Version.WEB-DL.1080p.UNTOUCHED.AVC.DD5.1.ESub-TMV.part06.rar
    https://www.heroupload.com/5d3b5a62541e6822/Anjali.CBI.2019.Telugu.Original.Version.WEB-DL.1080p.UNTOUCHED.AVC.DD5.1.ESub-TMV.part07.rar
    https://www.heroupload.com/a327189ca8330c49/Anjali.CBI.2019.Telugu.Original.Version.WEB-DL.1080p.UNTOUCHED.AVC.DD5.1.ESub-TMV.part08.rar
    https://www.heroupload.com/1202fa988fc10a3a/Anjali.CBI.2019.Telugu.Original.Version.WEB-DL.1080p.UNTOUCHED.AVC.DD5.1.ESub-TMV.part09.rar
    https://www.heroupload.com/55d7280324a36631/Anjali.CBI.2019.Telugu.Original.Version.WEB-DL.1080p.UNTOUCHED.AVC.DD5.1.ESub-TMV.part10.rar
    https://www.heroupload.com/b94878c61c143451/Anjali.CBI.2019.Telugu.Original.Version.WEB-DL.1080p.UNTOUCHED.AVC.DD5.1.ESub-TMV.part11.rar


    Buy Premium From My Links & Support Me

    Comments

    Add Comment!


    Add comment

    Name:*
    E-Mail:
    Comment:
    • winkwinkedsmileam
      belayfeelfellowlaughing
      lollovenorecourse
      requestsadtonguewassat
      cryingwhatbullyangry
    Security Code: *
    reload, if the code cannot be seen