a b c d e f g h i j k l m n o p q r s t u v w x y z 0-9

Dev (2019) Telugu - WEB-DL - 1080p - UNTOUCHED - AVC -DD5.1 - ESub-TMV

  • Views: 134
  • Author: stev
  • Date: 2-04-2019, 22:18
  • Category: Telugu Movies
  • Rating:
    Description of the movie:
    Dev (2019) Telugu - WEB-DL - 1080p - UNTOUCHED - AVC -DD5.1 - ESub-TMV





    Format                                   : Matroska
    Format version                           : Version 4
    File size                                : 7.81 GiB
    Duration                                 : 2 h 33 min
    Overall bit rate                         : 7 301 kb/s
    Encoded date                             : UTC 2019-04-01 18:03:43
    Writing application                      : mkvmerge v25.0.0 ('Prog Noir') 32-bit
    Writing library                          : libebml v1.3.6 + libmatroska v1.4.9
    
    Video
    ID                                       : 1
    Format                                   : AVC
    Format/Info                              : Advanced Video Codec
    Format profile                           : [email protected]
    Format settings                          : CABAC / 4 Ref Frames
    Format settings, CABAC                   : Yes
    Format settings, RefFrames               : 4 frames
    Codec ID                                 : V_MPEG4/ISO/AVC
    Duration                                 : 2 h 33 min
    Bit rate                                 : 6 659 kb/s
    Width                                    : 1 920 pixels
    Height                                   : 1 080 pixels
    Display aspect ratio                     : 16:9
    Frame rate mode                          : Constant
    Frame rate                               : 24.000 FPS
    Color space                              : YUV
    Chroma subsampling                       : 4:2:0
    Bit depth                                : 8 bits
    Scan type                                : Progressive
    Bits/(Pixel*Frame)                       : 0.134
    Stream size                              : 7.12 GiB (91%)
    Default                                  : Yes
    Forced                                   : No
    Color range                              : Limited
    Color primaries                          : BT.709
    Transfer characteristics                 : BT.709
    Matrix coefficients                      : BT.709
    
    Audio
    ID                                       : 2
    Format                                   : E-AC-3
    Format/Info                              : Enhanced AC-3
    Commercial name                          : Dolby Digital Plus
    Codec ID                                 : A_EAC3
    Duration                                 : 2 h 33 min
    Bit rate mode                            : Constant
    Bit rate                                 : 640 kb/s
    Channel(s)                               : 6 channels
    Channel layout                           : L R C LFE Ls Rs
    Sampling rate                            : 48.0 kHz
    Frame rate                               : 31.250 FPS (1536 SPF)
    Compression mode                         : Lossy
    Stream size                              : 701 MiB (9%)
    Title                                    : Telugu
    Language                                 : Telugu
    Service kind                             : Complete Main
    Default                                  : No
    Forced                                   : No
    
    Text
    ID                                       : 3
    Format                                   : UTF-8
    Codec ID                                 : S_TEXT/UTF8
    Codec ID/Info                            : UTF-8 Plain Text
    Duration                                 : 2 h 28 min
    Bit rate                                 : 72 b/s
    Count of elements                        : 2643
    Stream size                              : 79.0 KiB (0%)
    Title                                    : English [SDH]
    Language                                 : English
    Default                                  : No
    Forced                                   : No
    
    

    Dev (2019) Telugu - WEB-DL - 1080p - UNTOUCHED - AVC -DD5.1 - ESub-TMVDev (2019) Telugu - WEB-DL - 1080p - UNTOUCHED - AVC -DD5.1 - ESub-TMVDev (2019) Telugu - WEB-DL - 1080p - UNTOUCHED - AVC -DD5.1 - ESub-TMVDev (2019) Telugu - WEB-DL - 1080p - UNTOUCHED - AVC -DD5.1 - ESub-TMVDev (2019) Telugu - WEB-DL - 1080p - UNTOUCHED - AVC -DD5.1 - ESub-TMVDev (2019) Telugu - WEB-DL - 1080p - UNTOUCHED - AVC -DD5.1 - ESub-TMV


    SINGLE DIRECT FAST LINKS

    https://www.heroupload.com/765aa18346859b09/Dev.2019.Telugu.Org.Vers.WEB-DL.1080p.UNTOUCHED.AVC.DD5.1.ESub-TMV.mkv


    1GB LINKS


    
    https://www.heroupload.com/b8090438ee758fa1/Dev.2019.Telugu.Org.Vers.WEB-DL.1080p.UNTOUCHED.AVC.DD5.1.ESub-TMV.part1.rar
    https://www.heroupload.com/9f93391cde770bfc/Dev.2019.Telugu.Org.Vers.WEB-DL.1080p.UNTOUCHED.AVC.DD5.1.ESub-TMV.part2.rar
    https://www.heroupload.com/e4614408c8eb0de3/Dev.2019.Telugu.Org.Vers.WEB-DL.1080p.UNTOUCHED.AVC.DD5.1.ESub-TMV.part3.rar
    https://www.heroupload.com/46028c0acac8a6ea/Dev.2019.Telugu.Org.Vers.WEB-DL.1080p.UNTOUCHED.AVC.DD5.1.ESub-TMV.part4.rar
    https://www.heroupload.com/a5958536f6a76c96/Dev.2019.Telugu.Org.Vers.WEB-DL.1080p.UNTOUCHED.AVC.DD5.1.ESub-TMV.part5.rar
    https://www.heroupload.com/7b859689dbd4a2c3/Dev.2019.Telugu.Org.Vers.WEB-DL.1080p.UNTOUCHED.AVC.DD5.1.ESub-TMV.part6.rar
    https://www.heroupload.com/733b9b7649f56857/Dev.2019.Telugu.Org.Vers.WEB-DL.1080p.UNTOUCHED.AVC.DD5.1.ESub-TMV.part7.rar
    https://www.heroupload.com/5cac845f7cd13931/Dev.2019.Telugu.Org.Vers.WEB-DL.1080p.UNTOUCHED.AVC.DD5.1.ESub-TMV.part8.rar


    Buy Premium From My Links & Support Me

    Comments

    Add Comment!


    Add comment

    Name:*
    E-Mail:
    Comment:
    • winkwinkedsmileam
      belayfeelfellowlaughing
      lollovenorecourse
      requestsadtonguewassat
      cryingwhatbullyangry
    Security Code: *
    reload, if the code cannot be seen